[RG] The Village (2004) 720P | 1 link

Go down

[RG] The Village (2004) 720P | 1 link

Post  irfankasuri on Sun Apr 03, 2016 9:25 pm

The Village (2004) 720P | 1 link



Details :


]RATING] ===== d]6.5/10 from 161,372 users Metascore: 44/100 ]
]GENRE] ===== e]Drama | Mystery | Thriller ]
]STARS] ===== n]Sigourney Weaver, William Hurt, Joaquin Phoenix ]
]PLOT] ===== o]The population of a small, isolated countryside village believe that their alliance with the mysterious creatures that inhabit the forest around them is coming to an end. ]

IMDb :

Code:

[url=http://www.imdb.com/title/tt0368447/]http://www.imdb.com/title/tt0368447/[/url]

Samples:






720p Ofek Quality
Release Nfo :


The Village 2004 Web-DL 720P x264 MP4 - Ofek (Size: 926.31 MB)

Format : MPEG-4
Format profile : Base Media / Version 2
Codec ID : mp42
File size : 926 MiB
Duration : 1h 48mn
Overall bit rate mode : Variable
Overall bit rate : 1 198 Kbps

Video
ID : 1
Format : AVC
Format/Info : Advanced Video Codec
Codec ID : avc1
Codec ID/Info : Advanced Video Coding
Duration : 1h 48mn
Bit rate : 1 035 Kbps
Width : 1 280 pixels
Height : 694 pixels
Display aspect ratio : 1.85:1
Frame rate mode : Variable
Frame rate : 23.976 fps
Minimum frame rate : 3.971 fps
Maximum frame rate : 24.390 fps
Color space : YUV
Chroma subsampling : 4:2:0
Bit depth : 8 bits
Scan type : Progressive
Bits/(Pixel*Frame) : 0.049
Stream size : 800 MiB (86%)

Audio
ID : 2
Format : AAC
Codec ID : 40
Duration : 1h 47mn
Bit rate mode : Variable
Bit rate : 158 Kbps
Channel(s) : 2 channels
Channel positions : Front: L R
Sampling rate : 48.0 KHz
Compression mode : Lossy
Stream size : 122 MiB (13%)

Code:

http://rapidgator.net/file/b82a2a420c4c4a914ca8f7bb90e79b1e/The.Village.2004.BRrip.720P.x264.MP4.-.Ofek.rar.html
avatar
irfankasuri

Posts : 72482
Join date : 2013-08-02
Location : in your heart .

View user profile

Back to top Go down

Back to top

- Similar topics

 
Permissions in this forum:
You cannot reply to topics in this forum